FAQ

Cách Convert file APE thành các format thông thường khác. TUT by lucky_boy84

File APE thường đi kèm theo là 1 file *.CUE. File .CUE là file để chứa thông tin của từng track trong 1 đĩa nhac và thời gian bắt đầu và thời gian kết thúc của 1 track nhạc. Bạn dùng notepad.exe mở 1 file .CUE thử thì bạn sẽ thấy nội dung nó như sau:

 

Quote:

FILE “Rohani Shardad – Beauty Of Love.ape” WAVE
TRACK 01 AUDIO
TITLE “Beauty Of Love”
PERFORMER “Rohani Shardad”
INDEX 01 00:00:00
TRACK 02 AUDIO
TITLE “Connie’s Butterfly”
PERFORMER “Rohani Shardad”
INDEX 00 03:23:13
INDEX 01 03:25:65
TRACK 03 AUDIO
TITLE “Ozra’s Dance”
PERFORMER “Rohani Shardad”
INDEX 00 0839
INDEX 01 08:51:67
TRACK 04 AUDIO
TITLE “Serenity”
PERFORMER “Rohani Shardad”
INDEX 00 13:51:71
INDEX 01 13:55:05
TRACK 05 AUDIO
TITLE “Rain Story”
PERFORMER “Rohani Shardad”
INDEX 00 18:31:15
INDEX 01 18:33:57
TRACK 06 AUDIO
TITLE “Voices Of The Night”
PERFORMER “Rohani Shardad”
INDEX 00 22:00:07
INDEX 01 22:02:50
TRACK 07 AUDIO
TITLE “Desert Wind”
PERFORMER “Rohani Shardad”
INDEX 00 27:11:07
INDEX 01 27:16:72
TRACK 08 AUDIO
TITLE “Summer Breeze”
PERFORMER “Rohani Shardad”
INDEX 00 29:59:03
INDEX 01 30:05:57
TRACK 09 AUDIO
TITLE “Thoughts Of The Past”
PERFORMER “Rohani Shardad”
INDEX 00 34:52:47
INDEX 01 34:57:60
TRACK 10 AUDIO
TITLE “Rise Again”
PERFORMER “Rohani Shardad”
INDEX 00 38:09:19
INDEX 01 38:17:70

Vì thế các bạn có thể xuất ra từng track file của 1 đĩa (đã được RIP thành file .APE). Có nhiều cách trích xuất ra. Ở đây mình xài cách này:
1. Download chương trình CUE Splitter 0.6b11 cài đặt và chạy :
link download (free 100%) :
Download CUE Splitter 0.6b11

Đây là giao diện khi các bạn khởi động chương trình:

2. Click File -> Open Cue File (hoặc nhấn Ctrl + F12) để mở file CUE.
3. Chọn File .CUE cần mở (lưu ý là file .CUE và file .APE cần để chung 1 thư mục)
3. Khi mở file .CUE rồi thì các bạn có thể gặp 1 thông báo lỗi như hình dưới đây:

Các bạn đừng lo bởi trong hệ thống của các bạn thiếu file MACDll.dll. Đó là file quản lý file .APE và .CUE của hãng Monkey Audio.
4. Các bạn tắt chương trình và lên trang Money Audio để download file đó về, giải nén và copy file MACDll.dll vào thư mục C:\Windows\System32
link download : http://www.monkeysaudio.com/files/MACDll_399t2.zip

5. Sau đó bạn khởi động lại chương trình CUE Splitter và làm lại bước 2.
6. Chọn file CUE xong thì các bạn click và nút Split để tiến hành cắt file ra thành từng track.
7. Sau khi split xong thì file .APE lớn đã được cắt ra từng bài nhạc tương ứng trong 1 đĩa và extension của nhừng bài nhạc đó cũng là .APE. Các bạn có thể sử dụn chương trình Easy CD-DA Extractor mà tui đã nói ở trên để chuyển về định dạng *.mp3, *.wma, *.ogg …..hay những định dạng khác tùy thích…….
Thế là xong, ngồi và Enjoy những bài nhạc……
(PS. Còn có 1 cách nhanh hơn là dùng chương trình Easy CD-DA Extractor convert trực tiếp luôn. Mình đã thử cách này nhưng mà chắc có lẽ chương trình ko có copyright nên khi convert có lỗi nên ko trình bày cách này). Còn cách trên thì chạy ổn

Trả lời

Mời bạn điền thông tin vào ô dưới đây hoặc kích vào một biểu tượng để đăng nhập:

WordPress.com Logo

Bạn đang bình luận bằng tài khoản WordPress.com Đăng xuất / Thay đổi )

Twitter picture

Bạn đang bình luận bằng tài khoản Twitter Đăng xuất / Thay đổi )

Facebook photo

Bạn đang bình luận bằng tài khoản Facebook Đăng xuất / Thay đổi )

Google+ photo

Bạn đang bình luận bằng tài khoản Google+ Đăng xuất / Thay đổi )

Connecting to %s

%d bloggers like this: